<?xml version="1.0" standalone="no"?> <!DOCTYPE svg PUBLIC "-//W3C//DTD SVG 1.0//EN" "http://www.w3.org/TR/2001/REC-SVG-20010904/DTD/svg10.dtd" > <svg xmlns="http://www.w3.org/2000/svg" width="100%" height="100%">
<defs >
<font id="bpg_arial_2009" horiz-adv-x="904" ><font-face
    font-family="BPG Arial"
    units-per-em="2048"
    panose-1="2 11 6 4 2 2 2 2 2 4"
    ascent="1854"
    descent="-434"
    alphabetic="0" />
<missing-glyph horiz-adv-x="1536" d="M256 0V1280H1280V0H256ZM288 32H1248V1248H288V32Z" />
<glyph unicode=" " glyph-name="space" horiz-adv-x="569" />
<glyph unicode="!" glyph-name="exclam" horiz-adv-x="569" d="M231 364L176 1141V1466H399V1141L347 364H231ZM184 0V205H391V0H184Z" />
<glyph unicode="&quot;" glyph-name="quotedbl" horiz-adv-x="727" d="M144 947L94 1226V1466H299V1226L254 947H144ZM475 947L426 1226V1466H631V1226L583 947H475Z" />
<glyph unicode="#" glyph-name="numbersign" horiz-adv-x="1139" d="M103 -25L190 401H21V550H220L294 913H21V1062H324L411 1491H561L474 1062H789L876 1491H1027L940 1062H1113V913H910L835 550H1113V401H805L718 -25H568L654 401H340L253 -25H103ZM370 550H684L759
913H444L370 550Z" />
<glyph unicode="$" glyph-name="dollar" horiz-adv-x="1139" d="M510 -211V-31Q375 -14 291 29T145 170T73 407L254 441Q275 296 328 228Q404 132 510 121V694Q399 715 283 780Q197 828 151 913T104 1106Q104 1298 240 1417Q331 1497 510 1515V1601H616V1515Q773
1500 865 1423Q983 1325 1007 1154L821 1126Q805 1232 755 1288T616 1363V844Q752 810 796 791Q880 754 933 701T1014 575T1043 417Q1043 230 924 105T616 -29V-211H510ZM510 1365Q405 1349 345 1281T284 1120Q284 1028 335 966T510 867V1365ZM616 121Q721 134
789 212T858 405Q858 503 810 562T616 669V121Z" />
<glyph unicode="%" glyph-name="percent" horiz-adv-x="1821" d="M119 1114Q119 1271 198 1381T427 1491Q565 1491 655 1393T746 1103Q746 917 655 817T429 716Q296 716 208 815T119 1114ZM432 1367Q365 1367 321 1309T276 1096Q276 955 321 898T432 840Q500 840
544 898T589 1110Q589 1252 544 1309T432 1367ZM433 -54L1235 1491H1381L582 -54H433ZM1067 344Q1067 502 1146 611T1376 721Q1514 721 1604 623T1695 333Q1695 147 1604 47T1377 -54Q1244 -54 1156 45T1067 344ZM1381 597Q1313 597 1269 539T1224 326Q1224 186
1269 128T1380 70Q1449 70 1493 128T1538 340Q1538 482 1493 539T1381 597Z" />
<glyph unicode="&amp;" glyph-name="ampersand" horiz-adv-x="1366" d="M973 173Q884 74 779 25T552 -25Q327 -25 195 127Q88 251 88 404Q88 540 175 649T437 842Q338 956 305 1027T272 1164Q272 1296 375 1393T636 1491Q786 1491 881 1399T977 1178Q977 969 700
821L963 486Q1008 574 1033 690L1220 650Q1172 458 1090 334Q1191 200 1319 109L1198 -34Q1089 36 973 173ZM607 937Q724 1006 758 1058T793 1173Q793 1248 746 1295T627 1343Q554 1343 506 1296T457 1181Q457 1147 474 1110T527 1030L607 937ZM860 315L530 724Q384
637 333 563T282 415Q282 326 353 230T554 134Q635 134 721 184T860 315Z" />
<glyph unicode="&apos;" glyph-name="quotesingle" horiz-adv-x="391" d="M136 947L90 1221V1466H295V1221L247 947H136Z" />
<glyph unicode="(" glyph-name="parenleft" horiz-adv-x="682" d="M479 -431Q330 -243 227 9T124 531Q124 769 201 987Q291 1240 479 1491H608Q487 1283 448 1194Q387 1056 352 906Q309 719 309 530Q309 49 608 -431H479Z" />
<glyph unicode=")" glyph-name="parenright" horiz-adv-x="682" d="M253 -431H124Q423 49 423 530Q423 718 380 903Q346 1053 285 1191Q246 1281 124 1491H253Q441 1240 531 987Q608 769 608 531Q608 261 505 9T253 -431Z" />
<glyph unicode="*" glyph-name="asterisk" horiz-adv-x="797" d="M64 1197L110 1339Q269 1283 341 1242Q322 1423 321 1491H466Q463 1392 443 1243Q546 1295 679 1339L725 1197Q598 1155 476 1141Q537 1088 648 952L528 867Q470 946 391 1082Q317 941 261 867L143
952Q259 1095 309 1141Q180 1166 64 1197Z" />
<glyph unicode="+" glyph-name="plus" horiz-adv-x="1196" d="M513 237V639H114V807H513V1206H683V807H1082V639H683V237H513Z" />
<glyph unicode="," glyph-name="comma" horiz-adv-x="569" d="M182 0V205H387V0Q387 -113 347 -182T220 -290L170 -213Q227 -188 254 -140T284 0H182Z" />
<glyph unicode="-" glyph-name="hyphen" horiz-adv-x="682" d="M65 440V621H618V440H65Z" />
<glyph unicode="." glyph-name="period" horiz-adv-x="569" d="M186 0V205H391V0H186Z" />
<glyph unicode="/" glyph-name="slash" horiz-adv-x="569" d="M0 -25L425 1491H569L145 -25H0Z" />
<glyph unicode="0" glyph-name="zero" horiz-adv-x="1139" d="M85 723Q85 983 138 1141T297 1386T563 1472Q681 1472 770 1425T917 1288T1008 1070T1041 723Q1041 465 988 307T830 62T563 -25Q351 -25 230 127Q85 310 85 723ZM270 723Q270 362 354 243T563 123Q687
123 771 243T856 723Q856 1085 772 1204T561 1323Q437 1323 363 1218Q270 1084 270 723Z" />
<glyph unicode="1" glyph-name="one" horiz-adv-x="1139" d="M763 0H583V1147Q518 1085 413 1023T223 930V1104Q374 1175 487 1276T647 1472H763V0Z" />
<glyph unicode="2" glyph-name="two" horiz-adv-x="1139" d="M1031 173V0H62Q60 65 83 125Q120 224 201 320T437 542Q676 738 760 852T844 1069Q844 1176 768 1249T568 1323Q438 1323 360 1245T281 1029L96 1048Q115 1255 239 1363T572 1472Q783 1472 906 1355T1029
1065Q1029 977 993 892T874 713T596 455Q434 319 388 271T312 173H1031Z" />
<glyph unicode="3" glyph-name="three" horiz-adv-x="1139" d="M86 387L266 411Q297 258 371 191T553 123Q680 123 767 211T855 429Q855 553 774 633T568 714Q517 714 441 694L461 852Q479 850 490 850Q605 850 697 910T789 1095Q789 1194 722 1259T549 1324Q444
1324 374 1258T284 1060L104 1092Q137 1273 254 1372T545 1472Q665 1472 766 1421T920 1280T974 1091Q974 996 923 918T772 794Q902 764 974 670T1046 433Q1046 241 906 108T552 -26Q359 -26 232 89T86 387Z" />
<glyph unicode="4" glyph-name="four" horiz-adv-x="1139" d="M662 0V351H26V516L695 1466H842V516H1040V351H842V0H662ZM662 516V1177L203 516H662Z" />
<glyph unicode="5" glyph-name="five" horiz-adv-x="1139" d="M85 384L274 400Q295 262 371 193T556 123Q686 123 776 221T866 481Q866 635 780 724T553 813Q466 813 396 774T286 671L117 693L259 1446H988V1274H403L324 880Q456 972 601 972Q793 972 925 839T1057
497Q1057 298 941 153Q800 -25 556 -25Q356 -25 230 87T85 384Z" />
<glyph unicode="6" glyph-name="six" horiz-adv-x="1139" d="M1019 1107L840 1093Q816 1199 772 1247Q699 1324 592 1324Q506 1324 441 1276Q356 1214 307 1095T256 756Q321 855 415 903T612 951Q792 951 918 819T1045 476Q1045 338 986 220T822 38T586 -25Q361
-25 219 140T77 686Q77 1111 234 1304Q371 1472 603 1472Q776 1472 886 1375T1019 1107ZM284 475Q284 382 323 297T434 168T583 123Q697 123 779 215T861 465Q861 617 780 704T576 792Q454 792 369 705T284 475Z" />
<glyph unicode="7" glyph-name="seven" horiz-adv-x="1139" d="M97 1274V1447H1046V1307Q906 1158 769 911T556 403Q502 219 487 0H302Q305 173 370 418T556 890T815 1274H97Z" />
<glyph unicode="8" glyph-name="eight" horiz-adv-x="1139" d="M362 795Q250 836 196 912T142 1094Q142 1254 257 1363T563 1472Q755 1472 872 1361T989 1089Q989 987 936 912T773 795Q908 751 978 653T1049 419Q1049 231 916 103T566 -25Q349 -25 216 103T83
424Q83 567 155 663T362 795ZM326 1100Q326 996 393 930T567 864Q671 864 737 929T804 1090Q804 1189 736 1256T565 1324Q462 1324 394 1258T326 1100ZM268 423Q268 346 304 274T413 163T568 123Q697 123 781 206T865 417Q865 547 779 632T562 717Q435 717 352
633T268 423Z" />
<glyph unicode="9" glyph-name="nine" horiz-adv-x="1139" d="M112 339L285 355Q307 233 369 178T528 123Q611 123 673 161T776 262T843 434T870 654Q870 666 869 690Q815 604 722 551T519 497Q337 497 211 629T85 977Q85 1200 216 1336T546 1472Q689 1472 807
1395T987 1176T1049 763Q1049 482 988 316T807 62T524 -25Q352 -25 243 70T112 339ZM849 986Q849 1141 767 1232T568 1323Q448 1323 359 1225T270 971Q270 831 354 744T563 656Q688 656 768 743T849 986Z" />
<glyph unicode=":" glyph-name="colon" horiz-adv-x="569" d="M185 857V1062H390V857H185ZM185 0V205H390V0H185Z" />
<glyph unicode=";" glyph-name="semicolon" horiz-adv-x="569" d="M182 857V1062H387V857H182ZM182 0V205H387V0Q387 -113 347 -182T220 -290L170 -213Q227 -188 254 -140T284 0H182Z" />
<glyph unicode="&lt;" glyph-name="less" horiz-adv-x="1196" d="M112 641V809L1083 1219V1040L313 724L1083 405V226L112 641Z" />
<glyph unicode="=" glyph-name="equal" horiz-adv-x="1196" d="M1082 862H114V1030H1082V862ZM1082 417H114V585H1082V417Z" />
<glyph unicode="&gt;" glyph-name="greater" horiz-adv-x="1196" d="M1083 641L112 226V405L881 724L112 1040V1219L1083 809V641Z" />
<glyph unicode="?" glyph-name="question" horiz-adv-x="1139" d="M472 361Q471 397 471 415Q471 521 501 598Q523 656 572 715Q608 758 701 840T823 972T851 1079Q851 1184 769 1263T568 1343Q453 1343 376 1271T275 1046L90 1068Q115 1273 238 1382T565 1491Q780
1491 908 1374T1036 1091Q1036 995 991 914T815 717Q727 639 700 602T660 517T645 361H472ZM461 0V205H666V0H461Z" />
<glyph unicode="@" glyph-name="at" horiz-adv-x="2079" d="M1161 163Q1096 88 1016 43T854 -3Q765 -3 681 49T545 209T492 446Q492 605 573 764T776 1004T1011 1084Q1098 1084 1177 1039T1313 900L1347 1055H1526L1382 384Q1352 244 1352 229Q1352 202 1372 183T1422
163Q1475 163 1561 224Q1675 304 1741 438T1808 716Q1808 883 1723 1028T1468 1260T1093 1347Q859 1347 666 1238T366 924T259 485Q259 240 365 63T673 -198T1120 -283Q1382 -283 1559 -195T1824 19H2005Q1954 -86 1830 -195T1535 -367T1123 -431Q901 -431 714
-374T394 -203T195 61Q111 250 111 469Q111 713 211 934Q333 1205 557 1349T1102 1493Q1350 1493 1547 1392T1859 1089Q1956 916 1956 713Q1956 423 1752 198Q1570 -4 1354 -4Q1285 -4 1243 17T1180 77Q1167 102 1161 163ZM677 434Q677 297 742 221T891 145Q947
145 1009 178T1127 278T1220 445T1256 649Q1256 785 1189 860T1024 935Q960 935 904 903T794 798T709 623T677 434Z" />
<glyph unicode="A" glyph-name="A" horiz-adv-x="1366" d="M-3 0L560 1466H769L1369 0H1148L977 444H364L203 0H-3ZM420 602H917L764 1008Q694 1193 660 1312Q632 1171 581 1032L420 602Z" />
<glyph unicode="B" glyph-name="B" horiz-adv-x="1366" d="M150 0V1466H700Q868 1466 969 1422T1128 1285T1186 1091Q1186 997 1135 914T981 780Q1114 741 1185 647T1257 425Q1257 322 1214 234T1106 97T946 25T709 0H150ZM344 850H661Q790 850 846 867Q920 889
957 940T995 1068Q995 1141 960 1196T860 1272T637 1293H344V850ZM344 173H709Q803 173 841 180Q908 192 953 220T1027 301T1056 425Q1056 507 1014 567T898 652T683 677H344V173Z" />
<glyph unicode="C" glyph-name="C" horiz-adv-x="1479" d="M1204 514L1398 465Q1337 226 1179 101T791 -25Q554 -25 406 71T180 351T102 744Q102 973 189 1143T438 1402T794 1491Q1014 1491 1164 1379T1373 1064L1182 1019Q1131 1179 1034 1252T790 1325Q621 1325
508 1244T348 1027T302 745Q302 558 356 419T526 210T775 141Q938 141 1051 235T1204 514Z" />
<glyph unicode="D" glyph-name="D" horiz-adv-x="1479" d="M158 0V1466H663Q834 1466 924 1445Q1050 1416 1139 1340Q1255 1242 1312 1090T1370 741Q1370 574 1331 445T1231 232T1098 99T923 25T687 0H158ZM352 173H665Q810 173 892 200T1024 276Q1093 345 1131
461T1170 744Q1170 974 1095 1097T911 1263Q833 1293 660 1293H352V173Z" />
<glyph unicode="E" glyph-name="E" horiz-adv-x="1366" d="M162 0V1466H1222V1293H356V844H1167V672H356V173H1256V0H162Z" />
<glyph unicode="F" glyph-name="F" horiz-adv-x="1251" d="M168 0V1466H1157V1293H362V839H1050V666H362V0H168Z" />
<glyph unicode="G" glyph-name="G" horiz-adv-x="1593" d="M844 575V747L1465 748V204Q1322 90 1170 33T858 -25Q642 -25 466 67T199 335T109 726Q109 940 198 1125T456 1401T843 1491Q1002 1491 1130 1440T1332 1296T1443 1056L1268 1008Q1235 1120 1186 1184T1046
1286T844 1325Q711 1325 614 1285T458 1178T365 1033Q309 897 309 738Q309 542 376 410T573 214T847 150Q973 150 1093 198T1275 302V575H844Z" />
<glyph unicode="H" glyph-name="H" horiz-adv-x="1479" d="M164 0V1466H358V864H1120V1466H1314V0H1120V691H358V0H164Z" />
<glyph unicode="I" glyph-name="I" horiz-adv-x="569" d="M191 0V1466H385V0H191Z" />
<glyph unicode="J" glyph-name="J" horiz-adv-x="1024" d="M59 416L234 440Q241 272 297 210T452 148Q525 148 578 181T651 272T671 456V1466H865V467Q865 283 821 182T680 28T453 -25Q260 -25 158 86T59 416Z" />
<glyph unicode="K" glyph-name="K" horiz-adv-x="1366" d="M150 0V1466H344V739L1072 1466H1335L720 872L1362 0H1106L584 742L344 508V0H150Z" />
<glyph unicode="L" glyph-name="L" horiz-adv-x="1139" d="M150 0V1466H344V173H1066V0H150Z" />
<glyph unicode="M" glyph-name="M" horiz-adv-x="1706" d="M152 0V1466H444L791 428Q839 283 861 211Q886 291 939 446L1290 1466H1551V0H1364V1227L938 0H763L339 1248V0H152Z" />
<glyph unicode="N" glyph-name="N" horiz-adv-x="1479" d="M156 0V1466H355L1125 315V1466H1311V0H1112L342 1152V0H156Z" />
<glyph unicode="O" glyph-name="O" horiz-adv-x="1593" d="M99 714Q99 1079 295 1285T801 1492Q1004 1492 1167 1395T1415 1125T1501 731Q1501 508 1411 332T1156 66T800 -25Q593 -25 430 75T183 348T99 714ZM299 711Q299 446 441 294T799 141Q1018 141 1159 295T1301
732Q1301 911 1241 1044T1064 1251T802 1325Q596 1325 448 1184T299 711Z" />
<glyph unicode="P" glyph-name="P" horiz-adv-x="1366" d="M158 0V1466H711Q857 1466 934 1452Q1042 1434 1115 1384T1232 1242T1277 1042Q1277 855 1158 726T728 596H352V0H158ZM352 769H731Q919 769 998 839T1077 1036Q1077 1128 1031 1193T908 1280Q859 1293
727 1293H352V769Z" />
<glyph unicode="Q" glyph-name="Q" horiz-adv-x="1593" d="M1269 157Q1404 64 1518 21L1461 -114Q1303 -57 1146 66Q983 -25 786 -25Q587 -25 425 71T176 341T88 733Q88 950 176 1128T426 1399T790 1492Q993 1492 1156 1396T1404 1126T1490 734Q1490 553 1435
409T1269 157ZM842 405Q1010 358 1119 265Q1290 421 1290 734Q1290 912 1230 1045T1053 1251T791 1325Q574 1325 431 1177T288 733Q288 447 429 294T791 141Q895 141 987 180Q896 239 795 264L842 405Z" />
<glyph unicode="R" glyph-name="R" horiz-adv-x="1479" d="M161 0V1466H811Q1007 1466 1109 1427T1272 1287T1333 1066Q1333 910 1232 803T920 667Q997 630 1037 594Q1122 516 1198 399L1453 0H1209L1015 305Q930 437 875 507T777 605T688 644Q655 651 580 651H355V0H161ZM355
819H772Q905 819 980 846T1094 934T1133 1066Q1133 1170 1058 1237T819 1304H355V819Z" />
<glyph unicode="S" glyph-name="S" horiz-adv-x="1366" d="M92 471L275 487Q288 377 335 307T483 193T708 149Q819 149 904 182T1030 272T1072 398Q1072 467 1032 518T900 605Q841 628 639 676T356 768Q251 823 200 904T148 1087Q148 1198 211 1294T395 1441T664
1491Q827 1491 951 1439T1143 1284T1215 1053L1029 1039Q1014 1178 928 1249T672 1320Q496 1320 416 1256T335 1100Q335 1021 392 970Q448 919 684 866T1009 772Q1137 713 1198 623T1259 414Q1259 297 1192 194T1000 33T717 -25Q518 -25 384 33T173 207T92 471Z"
/>
<glyph unicode="T" glyph-name="T" horiz-adv-x="1251" d="M531 0V1293H48V1466H1210V1293H725V0H531Z" />
<glyph unicode="U" glyph-name="U" horiz-adv-x="1479" d="M1120 1466H1314V619Q1314 398 1264 268T1084 57T741 -25Q535 -25 404 46T217 251T161 619V1466H355V620Q355 429 390 339T512 199T724 150Q938 150 1029 247T1120 620V1466Z" />
<glyph unicode="V" glyph-name="V" horiz-adv-x="1366" d="M577 0L9 1466H219L600 401Q646 273 677 161Q711 281 756 401L1152 1466H1350L776 0H577Z" />
<glyph unicode="W" glyph-name="W" horiz-adv-x="1933" d="M414 0L25 1466H224L447 505Q483 354 509 205Q565 440 575 476L854 1466H1088L1298 724Q1377 448 1412 205Q1440 344 1485 524L1715 1466H1910L1508 0H1321L1012 1117Q973 1257 966 1289Q943 1188 923
1117L612 0H414Z" />
<glyph unicode="X" glyph-name="X" horiz-adv-x="1366" d="M9 0L576 764L76 1466H307L573 1090Q656 973 691 910Q740 990 807 1077L1102 1466H1313L798 775L1353 0H1113L744 523Q713 568 680 621Q631 541 610 511L242 0H9Z" />
<glyph unicode="Y" glyph-name="Y" horiz-adv-x="1366" d="M571 0V621L6 1466H242L531 1024Q611 900 680 776Q746 891 840 1035L1124 1466H1350L765 621V0H571Z" />
<glyph unicode="Z" glyph-name="Z" horiz-adv-x="1251" d="M41 0V180L792 1119Q872 1219 944 1293H126V1466H1176V1293L353 276L264 173H1200V0H41Z" />
<glyph unicode="[" glyph-name="bracketleft" horiz-adv-x="569" d="M139 -407V1466H536V1317H319V-258H536V-407H139Z" />
<glyph unicode="\" glyph-name="backslash" horiz-adv-x="569" d="M425 -25L0 1491H145L569 -25H425Z" />
<glyph unicode="]" glyph-name="bracketright" horiz-adv-x="569" d="M436 -407H39V-258H256V1317H39V1466H436V-407Z" />
<glyph unicode="^" glyph-name="asciicircum" horiz-adv-x="961" d="M239 690H54L407 1491H552L907 690H726L479 1287L239 690Z" />
<glyph unicode="_" glyph-name="underscore" horiz-adv-x="1139" d="M-31 -407V-277H1162V-407H-31Z" />
<glyph unicode="`" glyph-name="grave" horiz-adv-x="682" d="M465 1194H320L89 1474H330L465 1194Z" />
<glyph unicode="a" glyph-name="a" horiz-adv-x="1139" d="M828 131Q728 46 636 11T437 -24Q262 -24 168 61T74 280Q74 358 109 422T202 526T332 585Q385 599 492 612Q710 638 813 674Q814 711 814 721Q814 831 763 876Q694 937 558 937Q431 937 371 893T281 735L105
759Q129 872 184 941T343 1048T584 1086Q720 1086 805 1054T930 974T986 851Q995 805 995 685V445Q995 194 1006 128T1052 0H864Q836 56 828 131ZM813 533Q715 493 519 465Q408 449 362 429T291 371T266 285Q266 213 320 165T480 117Q584 117 665 162T784 287Q813
348 813 467V533Z" />
<glyph unicode="b" glyph-name="b" horiz-adv-x="1139" d="M278 0H111V1466H291V943Q405 1086 582 1086Q680 1086 767 1047T911 936T1000 763T1032 547Q1032 274 897 125T573 -24Q385 -24 278 133V0ZM276 539Q276 348 328 263Q413 124 558 124Q676 124 762 226T848
532Q848 740 766 839T566 938Q448 938 362 836T276 539Z" />
<glyph unicode="c" glyph-name="c" horiz-adv-x="1024" d="M828 389L1005 366Q976 183 857 80T563 -24Q345 -24 213 118T80 527Q80 699 137 828T310 1021T564 1086Q737 1086 847 999T988 750L813 723Q788 830 725 884T571 938Q435 938 350 841T265 532Q265 318
347 221T561 124Q667 124 738 189T828 389Z" />
<glyph unicode="d" glyph-name="d" horiz-adv-x="1139" d="M824 0V134Q723 -24 527 -24Q400 -24 294 46T129 241T70 530Q70 689 123 818T282 1017T519 1086Q615 1086 690 1046T812 940V1466H991V0H824ZM255 530Q255 326 341 225T544 124Q662 124 744 220T827 515Q827
733 743 835T536 937Q416 937 336 839T255 530Z" />
<glyph unicode="e" glyph-name="e" horiz-adv-x="1139" d="M862 342L1048 319Q1004 156 885 66T581 -24Q348 -24 212 119T75 522Q75 790 213 938T571 1086Q784 1086 919 941T1054 533Q1054 517 1053 485H261Q271 310 360 217T582 124Q681 124 751 176T862 342ZM271
633H864Q852 767 796 834Q710 938 573 938Q449 938 365 855T271 633Z" />
<glyph unicode="f" glyph-name="f" horiz-adv-x="569" d="M178 0V922H19V1062H178V1175Q178 1282 197 1334Q223 1404 288 1447T472 1491Q548 1491 640 1473L613 1316Q557 1326 507 1326Q425 1326 391 1291T357 1160V1062H564V922H357V0H178Z" />
<glyph unicode="g" glyph-name="g" horiz-adv-x="1139" d="M102 -88L277 -114Q288 -195 338 -232Q405 -282 521 -282Q646 -282 714 -232T806 -92Q820 -37 819 139Q701 0 525 0Q306 0 186 158T66 537Q66 689 121 817T280 1016T526 1086Q714 1086 836 934V1062H1002V144Q1002
-104 952 -207T792 -371T522 -431Q332 -431 215 -346T102 -88ZM251 550Q251 341 334 245T542 149Q666 149 750 244T834 544Q834 739 748 838T539 937Q419 937 335 840T251 550Z" />
<glyph unicode="h" glyph-name="h" horiz-adv-x="1139" d="M135 0V1466H315V940Q441 1086 633 1086Q751 1086 838 1040T962 911T1000 673V0H820V673Q820 808 762 869T596 931Q516 931 446 890T345 777T315 581V0H135Z" />
<glyph unicode="i" glyph-name="i" horiz-adv-x="455" d="M136 1259V1466H316V1259H136ZM136 0V1062H316V0H136Z" />
<glyph unicode="j" glyph-name="j" horiz-adv-x="455" d="M134 1257V1466H314V1257H134ZM-94 -412L-60 -259Q-6 -273 25 -273Q80 -273 107 -237T134 -54V1062H314V-58Q314 -254 263 -331Q198 -431 47 -431Q-26 -431 -94 -412Z" />
<glyph unicode="k" glyph-name="k" horiz-adv-x="1024" d="M136 0V1466H316V630L742 1062H975L569 668L1016 0H794L443 543L316 421V0H136Z" />
<glyph unicode="l" glyph-name="l" horiz-adv-x="455" d="M131 0V1466H311V0H131Z" />
<glyph unicode="m" glyph-name="m" horiz-adv-x="1706" d="M135 0V1062H296V913Q346 991 429 1038T618 1086Q736 1086 811 1037T918 900Q1044 1086 1246 1086Q1404 1086 1489 999T1574 729V0H1395V669Q1395 777 1378 824T1314 901T1206 930Q1094 930 1020 856T946
617V0H766V690Q766 810 722 870T578 930Q502 930 438 890T344 773T315 551V0H135Z" />
<glyph unicode="n" glyph-name="n" horiz-adv-x="1139" d="M135 0V1062H297V911Q414 1086 635 1086Q731 1086 811 1052T932 961T988 828Q998 778 998 653V0H818V646Q818 756 797 810T723 897T597 930Q482 930 399 857T315 580V0H135Z" />
<glyph unicode="o" glyph-name="o" horiz-adv-x="1155" d="M80 531Q80 826 244 968Q381 1086 578 1086Q797 1086 936 943T1075 546Q1075 341 1014 224T835 41T578 -24Q355 -24 218 119T80 531ZM265 531Q265 327 354 226T578 124Q712 124 801 226T890 537Q890 734
801 835T578 937Q443 937 354 836T265 531Z" />
<glyph unicode="p" glyph-name="p" horiz-adv-x="1082" d="M80 -407V1062H244V924Q302 1005 375 1045T552 1086Q688 1086 792 1016T949 819T1002 539Q1002 376 944 246T774 46T539 -24Q449 -24 378 14T260 110V-407H80ZM243 525Q243 320 326 222T527 124Q647 124
732 225T818 540Q818 743 735 844T535 945Q420 945 332 838T243 525Z" />
<glyph unicode="q" glyph-name="q" horiz-adv-x="1080" d="M820 -407V113Q778 54 703 15T542 -24Q353 -24 217 127T80 541Q80 701 135 828T296 1020T528 1086Q725 1086 838 920V1062H1000V-407H820ZM265 534Q265 329 351 227T557 124Q672 124 755 221T838 518Q838
730 751 834T545 938Q428 938 347 842T265 534Z" />
<glyph unicode="r" glyph-name="r" horiz-adv-x="682" d="M133 0V1062H295V901Q357 1014 409 1050T525 1086Q616 1086 710 1028L648 861Q582 900 516 900Q457 900 410 865T343 766Q313 670 313 556V0H133Z" />
<glyph unicode="s" glyph-name="s" horiz-adv-x="1024" d="M63 317L241 345Q256 238 324 181T516 124Q640 124 700 174T760 293Q760 354 707 389Q670 413 523 450Q325 500 249 536T133 637T93 780Q93 851 125 911T214 1012Q256 1043 328 1064T484 1086Q609 1086
703 1050T843 953T905 788L729 764Q717 846 660 892T497 938Q373 938 320 897T267 801Q267 766 289 738Q311 709 358 690Q385 680 517 644Q708 593 783 561T902 466T945 312Q945 222 893 143T741 20T517 -24Q310 -24 202 62T63 317Z" />
<glyph unicode="t" glyph-name="t" horiz-adv-x="569" d="M528 161L554 2Q478 -14 418 -14Q320 -14 266 17T190 98T168 311V922H36V1062H168V1325L347 1433V1062H528V922H347V301Q347 224 356 202T387 167T449 154Q479 154 528 161Z" />
<glyph unicode="u" glyph-name="u" horiz-adv-x="1139" d="M831 0V156Q707 -24 494 -24Q400 -24 319 12T198 102T142 236Q131 289 131 404V1062H311V473Q311 332 322 283Q339 212 394 172T530 131Q611 131 682 172T782 285T812 493V1062H992V0H831Z" />
<glyph unicode="v" glyph-name="v" horiz-adv-x="1024" d="M430 0L26 1062H216L444 426Q481 323 512 212Q536 296 579 414L815 1062H1000L598 0H430Z" />
<glyph unicode="w" glyph-name="w" horiz-adv-x="1479" d="M331 0L6 1062H192L361 449L424 221Q428 238 479 440L648 1062H833L992 446L1045 243L1106 448L1288 1062H1463L1131 0H944L775 636L734 817L519 0H331Z" />
<glyph unicode="x" glyph-name="x" horiz-adv-x="1024" d="M15 0L403 552L44 1062H269L432 813Q478 742 506 694Q550 760 587 811L766 1062H981L614 562L1009 0H788L570 330L512 419L233 0H15Z" />
<glyph unicode="y" glyph-name="y" horiz-adv-x="1024" d="M127 -409L107 -240Q166 -256 210 -256Q270 -256 306 -236T365 -180Q382 -153 420 -46Q425 -31 436 -2L33 1062H227L448 447Q491 330 525 201Q556 325 599 443L826 1062H1006L602 -18Q537 -193 501 -259Q453
-348 391 -389T243 -431Q191 -431 127 -409Z" />
<glyph unicode="z" glyph-name="z" horiz-adv-x="1024" d="M40 0V146L716 922Q601 916 513 916H80V1062H948V943L373 269L262 146Q383 155 489 155H980V0H40Z" />
<glyph unicode="{" glyph-name="braceleft" horiz-adv-x="684" d="M57 612Q134 614 182 653T247 762T264 998T270 1218Q279 1302 303 1353T364 1434T456 1481Q494 1491 580 1491H636V1334H605Q501 1334 467 1297T433 1129Q433 867 422 798Q404 691 361 633T224
530Q334 484 383 390T433 80Q433 -115 437 -152Q445 -220 477 -247T605 -274H636V-431H580Q482 -431 438 -415Q374 -392 332 -341T278 -210T264 49T247 298T183 407T57 449V612Z" />
<glyph unicode="|" glyph-name="bar" horiz-adv-x="532" d="M188 -431V1491H345V-431H188Z" />
<glyph unicode="}" glyph-name="braceright" horiz-adv-x="684" d="M626 612V449Q549 447 501 407T436 299T419 63T413 -157Q404 -242 380 -292T319 -373T227 -420Q189 -431 103 -431H47V-274H78Q182 -274 216 -237T250 -68Q250 182 259 249Q275 360 323 426T459
530Q344 585 297 675T250 981Q250 1176 245 1214Q238 1281 206 1307T78 1334H47V1491H103Q201 1491 245 1475Q309 1453 351 1401T405 1270T419 1011T436 763T500 654T626 612Z" />
<glyph unicode="~" glyph-name="asciitilde" horiz-adv-x="1196" d="M87 557V762Q193 882 365 882Q425 882 491 865T679 795Q748 766 782 757T852 748Q917 748 986 787T1110 885V673Q1046 613 981 586T833 559Q773 559 719 573T546 640T348 693Q284 693 228 666T87 557Z" />
</font>
</defs>
</svg>
